<?xml version="1.0" standalone="no"?>
<!DOCTYPE svg PUBLIC "-//W3C//DTD SVG 1.1//EN" "http://www.w3.org/Graphics/SVG/1.1/DTD/svg11.dtd">
<svg xmlns="http://www.w3.org/2000/svg">
<defs >
<font id="Inter" horiz-adv-x="1838" ><font-face
    font-family="Inter Light"
    units-per-em="2816"
    panose-1="2 0 5 3 0 0 0 2 0 4"
    ascent="2728"
    descent="-680"
    alphabetic="0" />
<glyph unicode=" " glyph-name="uni0020" horiz-adv-x="792" />
<glyph unicode="!" glyph-name="uni0021" horiz-adv-x="768" d="M485 2048L472 587H296L283 2048H485ZM384 -15Q325 -15 283 27T240 129Q240 189 282 231T384 273Q443 273 485 231T528 129Q528 90 509 57T457 5T384 -15Z" />
<glyph unicode="&quot;" glyph-name="uni0022" horiz-adv-x="1077" d="M387 2048V1365H219V2048H387ZM856 2048V1365H688V2048H856Z" />
<glyph unicode="#" glyph-name="uni0023" horiz-adv-x="1779" d="M1004 0L1340 2048H1495L1159 0H1004ZM53 591L79 745H1607L1581 591H53ZM284 0L620 2048H775L439 0H284ZM172 1303L197 1457H1725L1700 1303H172Z" />
<glyph unicode="$" glyph-name="uni0024" horiz-adv-x="1772" d="M821 -256V2304H952V-256H821ZM1384 1536Q1367 1707 1233 1808T896 1909Q753 1909 645 1860T475 1725T413 1528Q413 1447 448 1386T542 1282T674 1207T821 1155L1037 1093Q1135 1066 1233 1024T1412
919T1543 764T1593 544Q1593 380 1508 249T1264 42T883 -35Q674 -35 520 34T278 227T179 512H371Q381 391 451 307T633 180T883 136Q1036 136 1155 187T1343 331T1412 547Q1412 651 1358 721T1208 840T984 925L739 997Q498 1069 365 1196T232 1520Q232 1685 320
1810T560 2006T901 2077Q1092 2077 1239 2007T1472 1815T1565 1536H1384Z" />
<glyph unicode="%" glyph-name="uni0025" horiz-adv-x="2251" d="M1264 380V473Q1264 588 1310 680T1441 827T1643 881Q1761 881 1845 827T1974 681T2019 473V380Q2019 265 1974 173T1844 27T1643 -28Q1524 -28 1440 26T1310 173T1264 380ZM1421 473V380Q1421
267 1476 188T1643 108Q1751 108 1806 187T1861 380V473Q1861 586 1807 665T1643 745Q1534 745 1478 666T1421 473ZM232 1575V1668Q232 1783 278 1875T409 2021T611 2076Q729 2076 813 2022T942 1875T987 1668V1575Q987 1460 942 1368T812 1221T611 1167Q492 1167
408 1221T278 1367T232 1575ZM389 1668V1575Q389 1462 444 1383T611 1303Q719 1303 774 1382T829 1575V1668Q829 1781 775 1860T611 1940Q502 1940 446 1861T389 1668ZM324 0L1731 2048H1908L501 0H324Z" />
<glyph unicode="&amp;" glyph-name="uni0026" horiz-adv-x="1748" d="M783 -28Q594 -28 453 45T234 246T156 533Q156 649 203 742T341 920T559 1096L856 1317Q962 1393 1017 1466T1073 1647Q1073 1750 996 1831T795 1913Q709 1913 642 1870T535 1759T495 1615Q495
1545 531 1475T628 1327T764 1156L1700 0H1484L668 1001Q565 1127 485 1226T359 1418T313 1617Q313 1748 374 1850T542 2012T789 2071Q931 2071 1035 2013T1197 1859T1255 1647Q1255 1508 1184 1401T976 1191L604 913Q451 798 394 700T337 533Q337 425 393 334T548
188T777 132Q905 133 1018 183T1220 328T1364 553T1428 845L1601 843Q1597 678 1557 564T1464 375T1373 256Q1362 241 1351 226T1328 196Q1228 86 1080 29T783 -28Z" />
<glyph unicode="&apos;" glyph-name="uni0027" horiz-adv-x="608" d="M387 2048V1365H219V2048H387Z" />
<glyph unicode="(" glyph-name="uni0028" horiz-adv-x="976" d="M309 864Q309 1224 400 1544T661 2144H823Q750 2026 690 1877T585 1559T517 1214T493 864Q493 633 535 398T651 -48T823 -416H661Q491 -135 400 185T309 864Z" />
<glyph unicode=")" glyph-name="uni0029" horiz-adv-x="976" d="M667 864Q667 504 576 184T315 -416H153Q226 -298 286 -149T391 169T459 515T483 864Q483 1095 441 1330T325 1776T153 2144H315Q485 1863 576 1543T667 864Z" />
<glyph unicode="*" glyph-name="uni002A" horiz-adv-x="1408" d="M629 896L640 1363L241 1119L167 1249L579 1472L167 1695L241 1825L640 1581L629 2048H779L768 1581L1167 1825L1241 1695L829 1472L1241 1249L1167 1119L768 1363L779 896H629Z" />
<glyph unicode="+" glyph-name="uni002B" horiz-adv-x="1835" d="M832 167V1433H1003V167H832ZM284 715V885H1551V715H284Z" />
<glyph unicode="," glyph-name="uni002C" horiz-adv-x="766" d="M531 280L513 173Q496 65 465 -65T401 -312T344 -500H207Q220 -432 240 -327T283 -95T323 168L337 280H531Z" />
<glyph unicode="-" glyph-name="uni002D" horiz-adv-x="1276" d="M1064 962V794H212V962H1064Z" />
<glyph unicode="." glyph-name="uni002E" horiz-adv-x="755" d="M377 -15Q318 -15 276 27T233 129Q233 189 275 231T377 273Q437 273 479 231T521 129Q521 90 502 57T450 5T377 -15Z" />
<glyph unicode="/" glyph-name="uni002F" horiz-adv-x="973" d="M900 2144L240 -308H73L733 2144H900Z" />
<glyph unicode="0" glyph-name="uni0030" horiz-adv-x="1728" d="M864 -28Q648 -28 496 96T262 457T180 1024Q180 1354 261 1589T496 1950T864 2076Q1078 2076 1231 1951T1466 1590T1548 1024Q1548 693 1467 457T1233 97T864 -28ZM864 140Q1101 140 1234 371T1367
1024Q1367 1304 1307 1502T1134 1806T864 1911Q629 1911 495 1678T361 1024Q361 744 421 546T594 244T864 140Z" />
<glyph unicode="1" glyph-name="uni0031" horiz-adv-x="1255" d="M860 2048V0H673V1852H661L181 1533V1727L665 2048H860Z" />
<glyph unicode="2" glyph-name="uni0032" horiz-adv-x="1719" d="M228 0V137L897 889Q1028 1037 1108 1142T1224 1336T1261 1521Q1261 1638 1207 1725T1057 1862T843 1911Q717 1911 623 1857T476 1709T424 1493H245Q245 1663 323 1794T538 2001T848 2076Q1019
2076 1152 2003T1361 1803T1437 1521Q1437 1408 1398 1302T1262 1066T996 748L488 181V168H1501V0H228Z" />
<glyph unicode="3" glyph-name="uni0033" horiz-adv-x="1771" d="M893 -28Q704 -28 555 40T319 231T227 512H416Q421 400 485 317T655 187T891 140Q1033 140 1141 193T1311 338T1373 548Q1373 672 1310 767T1130 915T849 968H729V1136H849Q982 1136 1084 1184T1246
1321T1305 1528Q1305 1641 1254 1727T1111 1862T895 1911Q776 1911 677 1865T518 1735T453 1536H272Q276 1696 360 1817T585 2007T897 2076Q1078 2076 1210 2002T1414 1806T1487 1536Q1487 1361 1392 1237T1136 1064V1051Q1332 1012 1444 878T1557 548Q1557 384
1471 254T1236 48T893 -28Z" />
<glyph unicode="4" glyph-name="uni0034" horiz-adv-x="1764" d="M179 440V592L1092 2048H1204V1793H1121L388 621V608H1585V440H179ZM1135 0V488V558V2048H1313V0H1135Z" />
<glyph unicode="5" glyph-name="uni0035" horiz-adv-x="1677" d="M827 -28Q656 -28 522 41T308 233T223 512H404Q413 349 532 245T827 140Q964 140 1071 205T1238 385T1299 644Q1298 794 1234 908T1061 1088T815 1153Q712 1154 613 1119T448 1029L261 1053L384
2048H1396V1880H541L459 1195H469Q537 1252 634 1288T841 1324Q1022 1324 1166 1237T1395 998T1480 647Q1480 453 1396 301T1164 60T827 -28Z" />
<glyph unicode="6" glyph-name="uni0036" horiz-adv-x="1717" d="M873 -28Q746 -27 625 23T407 186T253 484T196 939Q196 1189 240 1397T372 1757T592 1992T901 2076Q1067 2076 1194 2008T1400 1817T1499 1536H1315Q1287 1698 1182 1803T901 1908Q649 1908 511
1675T372 1012H385Q434 1103 511 1169T688 1273T896 1311Q1067 1311 1209 1225T1436 988T1521 644Q1521 461 1441 307T1215 62T873 -28ZM873 140Q1007 140 1112 208T1279 390T1340 644Q1340 783 1279 896T1113 1076T873 1143Q771 1143 683 1102T531 989T433 825T407
632Q418 491 480 380T644 204T873 140Z" />
<glyph unicode="7" glyph-name="uni0037" horiz-adv-x="1586" d="M287 0L1220 1867V1880H145V2048H1416V1872L484 0H287Z" />
<glyph unicode="8" glyph-name="uni0038" horiz-adv-x="1723" d="M861 -28Q665 -28 512 46T272 248T185 539Q185 666 238 776T384 962T593 1061V1072Q442 1116 350 1245T259 1540Q258 1693 337 1814T552 2005T861 2076Q1032 2076 1168 2006T1383 1814T1464 1540Q1463
1376 1371 1246T1129 1072V1061Q1245 1039 1337 963T1483 777T1537 539Q1537 377 1450 249T1210 46T861 -28ZM861 140Q1007 140 1117 192T1290 337T1353 548Q1353 671 1288 767T1112 920T861 977Q721 977 610 921T434 768T369 548Q369 429 430 337T603 193T861
140ZM861 1137Q981 1137 1076 1188T1226 1327T1283 1529Q1282 1641 1227 1727T1078 1862T861 1911Q739 1911 644 1863T494 1728T440 1529Q439 1416 494 1328T645 1188T861 1137Z" />
<glyph unicode="9" glyph-name="uni0039" horiz-adv-x="1717" d="M844 2076Q972 2075 1092 2025T1310 1863T1464 1567T1521 1113Q1521 862 1477 653T1346 292T1126 56T816 -28Q651 -28 524 41T317 232T219 516H403Q430 352 535 246T816 140Q1067 140 1206 374T1345
1040H1332Q1284 950 1207 883T1030 779T821 741Q650 741 508 827T281 1064T196 1408Q196 1590 276 1742T502 1986T844 2076ZM844 1908Q711 1908 606 1841T439 1660T377 1408Q377 1269 438 1156T605 976T844 909Q946 909 1034 950T1186 1064T1284 1227T1311 1420Q1299
1560 1237 1670T1073 1844T844 1908Z" />
<glyph unicode=":" glyph-name="uni003A" horiz-adv-x="755" d="M377 39Q318 39 276 81T233 183Q233 242 275 284T377 327Q437 327 479 285T521 183Q521 143 502 111T450 59T377 39ZM377 1147Q318 1147 276 1189T233 1291Q233 1350 275 1392T377 1435Q437 1435
479 1393T521 1291Q521 1251 502 1219T450 1167T377 1147Z" />
<glyph unicode=";" glyph-name="uni003B" horiz-adv-x="768" d="M531 280L513 173Q496 65 465 -65T401 -312T344 -500H207Q220 -432 240 -327T283 -95T323 168L337 280H531ZM413 1147Q354 1147 312 1189T269 1291Q269 1350 311 1392T413 1435Q473 1435 515 1393T557
1291Q557 1251 538 1219T486 1167T413 1147Z" />
<glyph unicode="&lt;" glyph-name="uni003C" horiz-adv-x="1835" d="M305 736V864L1529 1539V1343L525 801L535 819V781L525 799L1529 257V61L305 736Z" />
<glyph unicode="=" glyph-name="uni003D" horiz-adv-x="1835" d="M348 1004V1169H1487V1004H348ZM348 431V596H1487V431H348Z" />
<glyph unicode="&gt;" glyph-name="uni003E" horiz-adv-x="1835" d="M1529 736L305 61V257L1309 799L1300 781V819L1309 801L305 1343V1539L1529 864V736Z" />
<glyph unicode="?" glyph-name="uni003F" horiz-adv-x="1401" d="M544 587V641Q545 799 579 898T679 1065T845 1197Q919 1245 969 1298T1046 1416T1073 1557Q1073 1665 1023 1746T886 1871T695 1916Q595 1916 509 1873T368 1745T308 1536H119Q124 1701 201 1822T407
2009T695 2076Q861 2076 987 2008T1184 1821T1255 1549Q1255 1448 1223 1365T1128 1212T969 1080Q879 1020 826 961T750 827T725 641V587H544ZM640 -15Q581 -15 539 27T496 129Q496 189 538 231T640 273Q699 273 741 231T784 129Q784 90 765 57T713 5T640 -15Z"
/>
<glyph unicode="@" glyph-name="uni0040" horiz-adv-x="2636" d="M1371 -541Q1085 -541 857 -453T469 -200T223 199T137 720Q137 1002 223 1232T470 1627T854 1881T1352 1971Q1620 1971 1832 1878T2193 1623T2420 1257T2499 827Q2499 685 2478 547T2404 297T2260
119T2027 52Q1953 52 1882 76T1760 157T1701 309H1691Q1659 237 1601 178T1459 83T1263 51Q1137 54 1037 107T866 252T758 465T721 728Q721 864 762 979T877 1180T1050 1317T1263 1376Q1365 1383 1451 1357T1597 1280T1683 1167H1693V1348H1856V421Q1856 316 1897
258T2029 199Q2138 199 2206 270T2307 482T2339 829Q2339 985 2296 1131T2169 1403T1965 1623T1689 1771T1344 1824Q1110 1824 919 1745T591 1519T379 1169T305 715Q305 462 379 258T592 -91T930 -314T1376 -392Q1486 -392 1592 -371T1786 -318T1928 -257L1979
-397Q1905 -437 1804 -470T1590 -522T1371 -541ZM1284 208Q1420 208 1513 271T1653 452T1701 736Q1701 903 1651 1011T1508 1171T1289 1224Q1167 1224 1076 1158T933 980T881 736Q881 595 926 475T1061 282T1284 208Z" />
<glyph unicode="A" glyph-name="uni0041" horiz-adv-x="1848" d="M275 0H79L824 2048H1024L1769 0H1573L931 1805H917L275 0ZM416 785H1432V617H416V785Z" />
<glyph unicode="B" glyph-name="uni0042" horiz-adv-x="1823" d="M272 0V2048H963Q1163 2048 1296 1978T1497 1787T1564 1512Q1564 1384 1521 1293T1404 1146T1239 1065V1049Q1338 1042 1431 980T1584 805T1644 537Q1644 382 1575 261T1364 70T1001 0H272ZM459
168H1001Q1238 168 1351 273T1465 537Q1465 654 1409 749T1250 901T1009 957H459V168ZM459 1123H980Q1101 1123 1192 1173T1334 1311T1385 1512Q1385 1675 1279 1777T963 1880H459V1123Z" />
<glyph unicode="C" glyph-name="uni0043" horiz-adv-x="2044" d="M1876 1408H1688Q1667 1513 1613 1602T1476 1759T1290 1863T1065 1900Q871 1900 712 1799T457 1503T361 1024Q361 739 456 544T711 249T1065 148Q1186 148 1290 185T1476 288T1612 445T1688 640H1876Q1851
499 1783 378T1609 165T1366 23T1065 -28Q807 -28 607 101T294 467T180 1024Q180 1345 293 1581T607 1946T1065 2076Q1229 2076 1366 2026T1608 1884T1782 1671T1876 1408Z" />
<glyph unicode="D" glyph-name="uni0044" horiz-adv-x="2020" d="M872 0H272V2048H908Q1201 2048 1409 1926T1729 1576T1840 1029Q1840 707 1727 477T1397 123T872 0ZM459 168H861Q1125 168 1303 272T1570 569T1659 1029Q1658 1294 1572 1485T1316 1778T897 1880H459V168Z"
/>
<glyph unicode="E" glyph-name="uni0045" horiz-adv-x="1671" d="M272 0V2048H1460V1880H459V1109H1397V941H459V168H1480V0H272Z" />
<glyph unicode="F" glyph-name="uni0046" horiz-adv-x="1651" d="M272 0V2048H1457V1880H459V1109H1364V941H459V0H272Z" />
<glyph unicode="G" glyph-name="uni0047" horiz-adv-x="2088" d="M1689 1408Q1661 1510 1607 1599T1474 1756T1291 1862T1060 1900Q860 1900 702 1796T453 1496T361 1024Q361 749 453 553T705 253T1073 148Q1262 148 1407 232T1633 472T1713 843L1773 824H1117V992H1895V824Q1895
562 1789 371T1498 76T1073 -28Q805 -28 604 101T292 467T180 1024Q180 1265 244 1459T425 1791T704 2002T1060 2076Q1228 2076 1367 2023T1613 1878T1788 1665T1881 1408H1689Z" />
<glyph unicode="H" glyph-name="uni0048" horiz-adv-x="2080" d="M272 0V2048H459V1109H1621V2048H1808V0H1621V941H459V0H272Z" />
<glyph unicode="I" glyph-name="uni0049" horiz-adv-x="731" d="M459 2048V0H272V2048H459Z" />
<glyph unicode="J" glyph-name="uni004A" horiz-adv-x="1507" d="M1048 2048H1235V571Q1234 371 1163 238T967 38T680 -28Q521 -28 396 31T200 197T128 448H312Q312 357 360 288T491 179T680 140Q789 140 871 186T1001 327T1048 571V2048Z" />
<glyph unicode="K" glyph-name="uni004B" horiz-adv-x="1803" d="M272 0V2048H459V945H477L1477 2048H1723L848 1101L1719 0H1491L732 971L459 665V0H272Z" />
<glyph unicode="L" glyph-name="uni004C" horiz-adv-x="1584" d="M272 0V2048H459V168H1435V0H272Z" />
<glyph unicode="M" glyph-name="uni004D" horiz-adv-x="2480" d="M272 2048H488L1231 264H1249L1992 2048H2208V0H2032V1653H2016L1325 0H1155L464 1653H448V0H272V2048Z" />
<glyph unicode="N" glyph-name="uni004E" horiz-adv-x="2139" d="M1867 2048V0H1685L475 1715H459V0H272V2048H453L1667 331H1683V2048H1867Z" />
<glyph unicode="O" glyph-name="uni004F" horiz-adv-x="2131" d="M1951 1024Q1951 704 1837 468T1524 102T1065 -28Q806 -28 607 101T294 467T180 1024Q180 1344 293 1580T607 1946T1065 2076Q1324 2076 1523 1947T1837 1581T1951 1024ZM1769 1024Q1769 1299 1677
1495T1426 1796T1065 1900Q864 1900 705 1796T454 1496T361 1024Q361 749 453 553T704 253T1065 148Q1267 148 1426 252T1678 552T1769 1024Z" />
<glyph unicode="P" glyph-name="uni0050" horiz-adv-x="1761" d="M272 0V2048H933Q1151 2048 1297 1965T1518 1738T1593 1416Q1593 1237 1519 1094T1299 867T936 783H416V951H931Q1092 951 1198 1011T1356 1177T1409 1416Q1409 1550 1357 1655T1198 1820T928 1880H459V0H272Z"
/>
<glyph unicode="Q" glyph-name="uni0051" horiz-adv-x="2131" d="M1039 640H1247L1509 293L1553 235L1875 -192H1667L1431 123L1389 179L1039 640ZM1951 1024Q1951 704 1837 468T1524 102T1065 -28Q806 -28 607 101T294 467T180 1024Q180 1344 293 1580T607 1946T1065
2076Q1324 2076 1523 1947T1837 1581T1951 1024ZM1769 1024Q1769 1299 1677 1495T1426 1796T1065 1900Q864 1900 705 1796T454 1496T361 1024Q361 749 453 553T704 253T1065 148Q1267 148 1426 252T1678 552T1769 1024Z" />
<glyph unicode="R" glyph-name="uni0052" horiz-adv-x="1777" d="M272 0V2048H933Q1151 2048 1297 1970T1518 1753T1593 1435Q1593 1256 1519 1119T1298 905T936 828H373V999H931Q1091 999 1197 1052T1356 1203T1409 1435Q1409 1569 1356 1669T1197 1825T928 1880H459V0H272ZM1175
924L1679 0H1463L964 924H1175Z" />
<glyph unicode="S" glyph-name="uni0053" horiz-adv-x="1772" d="M1384 1536Q1367 1707 1233 1808T896 1909Q753 1909 645 1860T475 1725T413 1528Q413 1447 448 1386T542 1282T674 1207T821 1155L1037 1093Q1135 1066 1233 1024T1412 919T1543 764T1593 544Q1593
380 1508 249T1264 42T883 -35Q674 -35 520 34T278 227T179 512H371Q381 391 451 307T633 180T883 136Q1036 136 1155 187T1343 331T1412 547Q1412 651 1358 721T1208 840T984 925L739 997Q498 1069 365 1196T232 1520Q232 1685 320 1810T560 2006T901 2077Q1092
2077 1239 2007T1472 1815T1565 1536H1384Z" />
<glyph unicode="T" glyph-name="uni0054" horiz-adv-x="1781" d="M148 1880V2048H1633V1880H984V0H797V1880H148Z" />
<glyph unicode="U" glyph-name="uni0055" horiz-adv-x="2096" d="M1637 2048H1824V692Q1824 483 1726 319T1454 60T1048 -35Q818 -35 643 60T370 319T272 692V2048H459V705Q459 542 532 415T737 214T1048 141Q1226 141 1359 214T1564 414T1637 705V2048Z" />
<glyph unicode="V" glyph-name="uni0056" horiz-adv-x="1848" d="M275 2048L915 243H933L1573 2048H1769L1024 0H824L79 2048H275Z" />
<glyph unicode="W" glyph-name="uni0057" horiz-adv-x="2619" d="M628 0L67 2048H257L721 287H737L1201 2048H1417L1881 287H1897L2361 2048H2552L1991 0H1791L1316 1737H1303L828 0H628Z" />
<glyph unicode="X" glyph-name="uni0058" horiz-adv-x="1755" d="M304 2048L871 1159H884L1451 2048H1672L1013 1024L1672 0H1451L884 879H871L304 0H83L752 1024L83 2048H304Z" />
<glyph unicode="Y" glyph-name="uni0059" horiz-adv-x="1824" d="M80 2048H296L903 1076H921L1528 2048H1744L1005 887V0H819V887L80 2048Z" />
<glyph unicode="Z" glyph-name="uni005A" horiz-adv-x="1741" d="M191 0V141L1328 1880H185V2048H1551V1907L413 168H1561V0H191Z" />
<glyph unicode="[" glyph-name="uni005B" horiz-adv-x="976" d="M339 -416V2144H851V1992H509V-264H851V-416H339Z" />
<glyph unicode="\" glyph-name="uni005C" horiz-adv-x="973" d="M733 -308L73 2144H239L899 -308H733Z" />
<glyph unicode="]" glyph-name="uni005D" horiz-adv-x="976" d="M637 2144V-416H125V-264H467V1992H125V2144H637Z" />
<glyph unicode="^" glyph-name="uni005E" horiz-adv-x="1256" d="M597 1896H659V1808H597V1896ZM119 1120L529 1984H727L1137 1120H956L615 1848H641L303 1120H119Z" />
<glyph unicode="_" glyph-name="uni005F" horiz-adv-x="1249" d="M1253 0V-168H-5V0H1253Z" />
<glyph unicode="`" glyph-name="uni0060" horiz-adv-x="1400" d="M769 1749L462 2203H673L929 1749H769Z" />
<glyph unicode="a" glyph-name="uni0061" horiz-adv-x="1567" d="M664 -35Q525 -35 410 19T227 177T159 429Q159 543 202 621T324 749T511 828T749 873Q878 889 967 901T1104 939T1151 1023V1059Q1151 1216 1058 1306T789 1397Q623 1397 519 1324T372 1152L203
1213Q255 1339 347 1414T553 1523T784 1557Q872 1557 967 1534T1145 1455T1278 1298T1329 1043V0H1151V243H1140Q1108 175 1045 111T887 6T664 -35ZM688 128Q830 128 934 191T1094 358T1151 589V811Q1131 792 1085 777T978 751T857 731T749 717Q619 701 527 667T386
574T337 421Q337 281 437 205T688 128Z" />
<glyph unicode="b" glyph-name="uni0062" horiz-adv-x="1727" d="M272 0V2048H451V1243H467Q497 1312 553 1385T702 1507T936 1557Q1125 1557 1268 1458T1491 1180T1571 764Q1571 526 1492 347T1270 68T939 -32Q799 -32 706 18T555 141T467 285H445V0H272ZM448
767Q448 581 503 438T663 213T917 131Q1070 131 1176 215T1337 444T1392 767Q1392 944 1338 1086T1177 1311T917 1395Q767 1395 663 1315T503 1093T448 767Z" />
<glyph unicode="c" glyph-name="uni0063" horiz-adv-x="1567" d="M835 -32Q629 -32 477 71T240 353T156 761Q156 992 241 1172T479 1454T832 1557Q986 1557 1111 1498T1317 1331T1420 1080H1240Q1212 1210 1106 1302T835 1395Q688 1395 575 1316T399 1095T335
767Q335 580 397 437T571 212T835 131Q937 131 1021 169T1163 279T1241 448H1421Q1401 309 1323 201T1120 30T835 -32Z" />
<glyph unicode="d" glyph-name="uni0064" horiz-adv-x="1727" d="M788 -32Q599 -32 457 68T236 347T156 764Q156 1001 235 1179T458 1457T791 1557Q931 1557 1024 1508T1173 1385T1260 1243H1276V2048H1455V0H1281V285H1260Q1229 215 1172 142T1022 18T788 -32ZM809
131Q958 131 1063 212T1223 437T1279 767Q1279 951 1224 1092T1064 1314T809 1395Q655 1395 550 1312T390 1086T335 767Q335 588 390 444T550 216T809 131Z" />
<glyph unicode="e" glyph-name="uni0065" horiz-adv-x="1635" d="M856 -32Q641 -32 484 68T242 347T156 759Q156 991 241 1171T478 1454T829 1557Q954 1557 1070 1512T1278 1373T1425 1138T1479 803V715H279V872H1297Q1297 1020 1238 1138T1073 1326T829 1395Q683
1395 572 1317T399 1111T335 831V737Q335 554 398 418T579 206T856 131Q965 131 1047 165T1186 256T1272 383L1441 328Q1406 231 1327 149T1129 18T856 -32Z" />
<glyph unicode="f" glyph-name="uni0066" horiz-adv-x="988" d="M867 1536V1381H112V1536H867ZM348 0V1761Q348 1885 405 1970T556 2099T753 2143Q823 2143 869 2132T943 2109L891 1953Q871 1959 842 1967T769 1975Q653 1975 590 1910T527 1724L526 0H348Z" />
<glyph unicode="g" glyph-name="uni0067" horiz-adv-x="1692" d="M821 -608Q664 -608 546 -568T347 -457T221 -300L367 -204Q400 -262 455 -318T600 -411T821 -448Q1025 -448 1150 -346T1276 -29V317H1260Q1229 247 1171 178T1020 62T788 16Q604 16 462 107T238
367T156 772Q156 1005 235 1182T458 1458T791 1557Q932 1557 1025 1508T1174 1385T1263 1243H1281V1536H1455V-40Q1455 -235 1372 -361T1146 -547T821 -608ZM809 179Q957 179 1062 250T1223 456T1279 775Q1279 955 1224 1094T1065 1314T809 1395Q655 1395 549 1312T389
1089T335 775Q335 599 390 465T551 255T809 179Z" />
<glyph unicode="h" glyph-name="uni0068" horiz-adv-x="1643" d="M413 960V0H235V2048H413V1295H429Q483 1414 596 1485T884 1556Q1040 1556 1158 1492T1342 1303T1408 995V0H1229V984Q1229 1174 1124 1283T839 1393Q716 1393 620 1341T469 1192T413 960Z" />
<glyph unicode="i" glyph-name="uni0069" horiz-adv-x="653" d="M237 0V1536H416V0H237ZM328 1800Q273 1800 234 1837T195 1928Q195 1981 234 2018T328 2056Q383 2056 422 2019T461 1928Q461 1875 422 1838T328 1800Z" />
<glyph unicode="j" glyph-name="uni006A" horiz-adv-x="653" d="M237 1536H416V-149Q416 -280 368 -375T227 -523T5 -576Q-5 -576 -15 -576T-37 -575L-35 -408Q-25 -408 -16 -408T3 -408Q113 -408 175 -340T237 -149V1536ZM325 1800Q271 1800 232 1837T192 1928Q192
1981 231 2018T325 2056Q380 2056 419 2019T459 1928Q459 1875 420 1838T325 1800Z" />
<glyph unicode="k" glyph-name="uni006B" horiz-adv-x="1479" d="M397 580L395 813H435L1155 1536H1380L669 824L653 821L397 580ZM235 0V2048H413V0H235ZM1192 0L568 789L696 912L1420 0H1192Z" />
<glyph unicode="l" glyph-name="uni006C" horiz-adv-x="648" d="M413 2048V0H235V2048H413Z" />
<glyph unicode="m" glyph-name="uni006D" horiz-adv-x="2416" d="M235 0V1536H408V1300H424Q470 1419 577 1487T836 1556Q995 1556 1097 1482T1251 1277H1264Q1316 1405 1433 1480T1719 1556Q1933 1556 2057 1422T2181 1029V0H2003V1029Q2003 1211 1910 1302T1665
1393Q1489 1393 1394 1285T1299 1011V0H1117V1045Q1117 1201 1030 1297T785 1393Q679 1393 595 1341T462 1197T413 984V0H235Z" />
<glyph unicode="n" glyph-name="uni006E" horiz-adv-x="1632" d="M413 960V0H235V1536H408V1295H424Q478 1413 592 1484T876 1556Q1031 1556 1148 1492T1331 1302T1397 995V0H1219V984Q1219 1173 1114 1283T831 1393Q710 1393 616 1341T468 1192T413 960Z" />
<glyph unicode="o" glyph-name="uni006F" horiz-adv-x="1664" d="M832 -32Q633 -32 481 69T242 348T156 761Q156 997 242 1176T480 1456T832 1557Q1031 1557 1183 1456T1421 1176T1508 761Q1508 527 1422 349T1184 69T832 -32ZM832 131Q992 131 1103 217T1271
446T1329 761Q1329 933 1272 1077T1103 1308T832 1395Q673 1395 562 1308T393 1077T335 761Q335 589 392 446T561 217T832 131Z" />
<glyph unicode="p" glyph-name="uni0070" horiz-adv-x="1689" d="M235 -576V1536H408V1243H429Q461 1312 517 1384T665 1507T899 1557Q1089 1557 1231 1458T1453 1180T1533 764Q1533 526 1454 347T1232 68T901 -32Q762 -32 669 18T518 141T429 285H413V-576H235ZM411
767Q411 581 466 438T626 213T880 131Q1033 131 1138 215T1299 444T1355 767Q1355 944 1301 1086T1140 1311T880 1395Q730 1395 625 1315T466 1093T411 767Z" />
<glyph unicode="q" glyph-name="uni0071" horiz-adv-x="1689" d="M1276 -576V285H1260Q1229 215 1172 142T1021 18T788 -32Q600 -32 458 68T236 347T156 764Q156 1001 235 1179T458 1457T791 1557Q932 1557 1024 1507T1173 1385T1260 1243H1281V1536H1455V-576H1276ZM809
131Q958 131 1063 212T1223 437T1279 767Q1279 951 1224 1092T1065 1314T809 1395Q655 1395 549 1312T389 1086T335 767Q335 588 390 444T551 216T809 131Z" />
<glyph unicode="r" glyph-name="uni0072" horiz-adv-x="1004" d="M235 0V1536H408V1300H421Q467 1416 581 1487T841 1559Q863 1559 890 1558T935 1556V1375Q923 1377 893 1381T828 1385Q708 1385 615 1335T467 1195T413 992V0H235Z" />
<glyph unicode="s" glyph-name="uni0073" horiz-adv-x="1444" d="M1267 1199L1104 1153Q1080 1222 1036 1278T922 1367T747 1400Q591 1400 491 1326T391 1135Q391 1036 459 975T671 877L903 820Q1096 773 1192 671T1289 415Q1289 285 1217 184T1017 26T719 -32Q494
-32 348 69T161 363L332 405Q365 268 461 198T716 128Q893 128 999 207T1105 407Q1105 500 1043 563T855 657L604 717Q404 765 308 869T212 1127Q212 1254 281 1350T471 1502T747 1557Q958 1557 1084 1462T1267 1199Z" />
<glyph unicode="t" glyph-name="uni0074" horiz-adv-x="1009" d="M840 1536V1381H107V1536H840ZM336 1904H515V401Q515 305 548 251T634 174T747 151Q782 151 807 155T851 165L889 4Q863 -6 825 -14T731 -23Q633 -23 543 20T394 148T336 359V1904Z" />
<glyph unicode="u" glyph-name="uni0075" horiz-adv-x="1624" d="M1211 587V1536H1389V0H1211V255H1197Q1143 137 1026 59T740 -20Q593 -20 479 44T300 234T235 541V1536H413V552Q413 372 519 263T791 153Q895 153 991 203T1149 349T1211 587Z" />
<glyph unicode="v" glyph-name="uni0076" horiz-adv-x="1536" d="M1424 1536L863 0H673L112 1536H305L761 235H775L1231 1536H1424Z" />
<glyph unicode="w" glyph-name="uni0077" horiz-adv-x="2267" d="M576 0L112 1536H300L664 269H677L1040 1536H1229L1589 272H1603L1967 1536H2155L1691 0H1507L1143 1259H1124L760 0H576Z" />
<glyph unicode="x" glyph-name="uni0078" horiz-adv-x="1483" d="M345 1536L741 881L1137 1536H1344L850 768L1344 0H1137L741 634L345 0H139L627 768L139 1536H345Z" />
<glyph unicode="y" glyph-name="uni0079" horiz-adv-x="1536" d="M359 -576Q306 -576 260 -566T187 -544L235 -387Q326 -415 397 -408T523 -344T621 -171L677 -15L112 1536H305L761 235H775L1231 1536H1424L774 -243Q733 -354 673 -428T535 -539T359 -576Z" />
<glyph unicode="z" glyph-name="uni007A" horiz-adv-x="1493" d="M187 0V141L1075 1355V1368H225V1536H1304V1389L432 181V168H1336V0H187Z" />
<glyph unicode="{" glyph-name="uni007B" horiz-adv-x="976" d="M131 851V955Q300 955 364 1022T429 1256V1644Q429 1772 454 1866T534 2022T678 2114T897 2144V1992Q785 1992 719 1956T624 1842T595 1644V1203Q595 1118 575 1053T504 942T363 874T131 851ZM897
-416Q768 -416 679 -386T534 -295T454 -139T429 84V472Q429 639 365 706T131 773V877Q272 877 362 854T504 786T575 676T595 525V84Q595 -37 623 -113T718 -227T897 -264V-416ZM131 773V955H360V773H131Z" />
<glyph unicode="|" glyph-name="uni007C" horiz-adv-x="869" d="M512 2708V-660H357V2708H512Z" />
<glyph unicode="}" glyph-name="uni007D" horiz-adv-x="976" d="M845 877V773Q676 773 612 706T547 472V84Q547 -44 522 -138T442 -294T298 -386T79 -416V-264Q191 -264 257 -227T352 -114T381 84V525Q381 610 401 675T472 786T613 854T845 877ZM79 2144Q208 2144
297 2114T442 2023T522 1867T547 1644V1256Q547 1089 611 1022T845 955V851Q704 851 614 874T472 942T401 1052T381 1203V1644Q381 1765 353 1842T258 1955T79 1992V2144ZM845 955V773H616V955H845Z" />
<glyph unicode="~" glyph-name="uni007E" horiz-adv-x="1835" d="M243 629Q245 767 299 855T440 985T627 1028Q729 1028 810 985T984 865Q1053 809 1101 782T1209 755Q1302 754 1361 816T1427 989L1592 984Q1587 847 1533 760T1393 631T1212 589Q1115 590 1037
631T865 749Q796 806 745 834T629 863Q536 863 474 805T408 627L243 629Z" />
<glyph unicode="&#xa0;" glyph-name="uni00A0" horiz-adv-x="792" />
<glyph unicode="&#xa1;" glyph-name="uni00A1" horiz-adv-x="768" d="M485 -520H283L296 941H472L485 -520ZM384 1543Q443 1543 485 1501T528 1399Q528 1339 486 1297T384 1255Q325 1255 283 1297T240 1399Q240 1439 259 1471T312 1523T384 1543Z" />
<glyph unicode="&#xa2;" glyph-name="uni00A2" horiz-adv-x="1567" d="M758 0V2048H889V0H758ZM835 229Q629 229 477 332T240 614T156 1023Q156 1254 241 1433T479 1716T832 1819Q986 1819 1111 1759T1317 1592T1420 1341H1240Q1212 1472 1106 1564T835 1656Q688
1656 575 1577T399 1356T335 1028Q335 841 397 698T571 474T835 392Q937 392 1021 430T1163 540T1241 709H1421Q1401 570 1323 462T1120 292T835 229Z" />
<glyph unicode="&#xa3;" glyph-name="uni00A3" horiz-adv-x="1776" d="M1517 0H197V168H1517V0ZM1101 815H192V988H1101V815ZM595 1455L625 507Q631 368 594 261T459 111L285 168Q350 168 386 223T435 357T447 507L419 1455Q412 1656 492 1794T708 2004T1000 2076Q1134
2076 1244 2029T1431 1900T1538 1715T1543 1503L1367 1551Q1384 1658 1337 1738T1201 1863T1008 1908Q897 1908 803 1857T651 1704T595 1455Z" />
<glyph unicode="&#xa4;" glyph-name="uni00A4" horiz-adv-x="1997" d="M993 -28Q824 -28 678 37T420 221T246 496T184 836Q184 1019 246 1175T419 1449T677 1631T993 1696Q1163 1696 1310 1631T1568 1449T1742 1176T1805 836Q1805 653 1743 496T1569 221T1310
38T993 -28ZM993 140Q1126 140 1242 194T1446 343T1582 565T1632 836Q1632 1030 1547 1187T1316 1438T993 1531Q815 1531 670 1438T438 1188T352 836Q352 643 438 485T669 234T993 140ZM1570 1308L1449 1435L1713 1707L1837 1580L1570 1308ZM1713 -13L1449 259L1570
383L1837 114L1713 -13ZM278 -13L157 114L421 383L545 259L278 -13ZM421 1308L157 1580L278 1707L545 1435L421 1308Z" />
<glyph unicode="&#xa5;" glyph-name="uni00A5" horiz-adv-x="1520" d="M255 2048L816 900L664 847L47 2048H255ZM704 900L1265 2048H1473L856 847L704 900ZM853 1035V0H667V1035H853ZM1312 985V844H208V985H1312ZM1312 640V499H208V640H1312Z" />
<glyph unicode="&#xa6;" glyph-name="uni00A6" horiz-adv-x="674" d="M253 545H421V-384H253V545ZM421 2048V1123H253V2048H421Z" />
<glyph unicode="&#xa7;" glyph-name="uni00A7" horiz-adv-x="1532" d="M1245 1588H1072Q1069 1726 993 1819T764 1913Q666 1913 599 1875T498 1776T464 1648Q464 1575 501 1519T595 1418T712 1339L1027 1153Q1080 1122 1140 1081T1254 986T1341 860T1375 697Q1375
618 1334 546T1223 422T1071 355V351Q1173 273 1214 191T1255 11Q1255 -131 1186 -225T1003 -368T755 -416Q603 -416 484 -356T297 -185T225 77H401Q405 -78 503 -165T755 -253Q888 -253 984 -186T1081 11Q1081 83 1050 135T961 231T825 320L509 503Q440 543 377
588T265 688T186 810T157 963Q157 1041 195 1116T301 1244T459 1311V1319Q382 1385 337 1464T291 1648Q291 1770 352 1866T519 2019T764 2076Q910 2076 1017 2014T1183 1841T1245 1588ZM1207 697Q1207 769 1168 826T1067 929T941 1013L611 1207Q539 1227 474 1199T367
1109T325 965Q325 860 398 788T597 643L905 464Q967 445 1037 470T1157 554T1207 697Z" />
<glyph unicode="&#xa8;" glyph-name="uni00A8" horiz-adv-x="1728" d="M608 1800Q557 1800 519 1838T480 1928Q480 1983 518 2019T608 2056Q663 2056 699 2020T736 1928Q736 1877 700 1839T608 1800ZM1120 1800Q1069 1800 1031 1838T992 1928Q992 1983 1030 2019T1120
2056Q1175 2056 1211 2020T1248 1928Q1248 1877 1212 1839T1120 1800Z" />
<glyph unicode="&#xa9;" glyph-name="uni00A9" horiz-adv-x="2576" d="M710 1024Q710 1188 790 1323T1005 1538T1304 1618Q1438 1618 1551 1563T1740 1413T1843 1195H1657Q1627 1304 1529 1373T1304 1442Q1189 1442 1094 1386T943 1235T886 1024Q886 909 942 814T1094
663T1304 606Q1431 606 1522 675T1644 853H1829Q1804 731 1731 636T1548 485T1304 430Q1140 430 1005 510T790 725T710 1024ZM1288 -32Q1070 -32 879 50T542 277T314 614T232 1024Q233 1243 315 1434T543 1770T879 1998T1288 2080Q1507 2080 1698 1998T2034 1771T2261
1434T2344 1024Q2345 805 2263 614T2036 278T1699 50T1288 -32ZM1288 144Q1471 144 1631 212T1911 401T2100 682T2168 1023Q2167 1206 2099 1366T1910 1646T1630 1835T1288 1904Q1106 1904 947 1836T668 1646T478 1366T408 1023Q407 842 475 683T665 403T946 213T1288
144Z" />
<glyph unicode="&#xaa;" glyph-name="uni00AA" horiz-adv-x="1181" d="M791 1184V1652Q791 1765 745 1820T601 1875Q496 1875 437 1830T374 1698L195 1713Q197 1854 307 1943T601 2032Q775 2032 873 1938T973 1652V1220Q972 1152 980 1092T1007 973H822Q807 1021
799 1076T791 1184ZM835 1572V1445H623Q487 1445 423 1394T358 1263Q358 1190 403 1149T541 1107Q598 1106 656 1128T758 1187T820 1263L844 1143Q790 1066 708 1009T501 952Q346 952 260 1036T173 1257Q174 1409 286 1490T623 1572H835Z" />
<glyph unicode="&#xab;" glyph-name="uni00AB" horiz-adv-x="1507" d="M771 220H607L203 820V840H376L771 220ZM771 1448L376 828H203V848L607 1448H771ZM1283 220H1119L715 820V840H888L1283 220ZM1283 1448L888 828H715V848L1119 1448H1283Z" />
<glyph unicode="&#xac;" glyph-name="uni00AC" horiz-adv-x="1482" d="M1312 1108V929H175V1108H1312ZM1312 1027V516H1107V1027H1312Z" />
<glyph unicode="&#xad;" glyph-name="uni00AD" horiz-adv-x="1276" d="M1064 962V794H212V962H1064Z" />
<glyph unicode="&#xae;" glyph-name="uni00AE" horiz-adv-x="1888" d="M673 916V1654H1027Q1083 1654 1135 1628T1222 1550T1257 1423Q1257 1348 1222 1294T1132 1210T1019 1181H745V1282H985Q1036 1282 1076 1318T1117 1423Q1117 1493 1077 1523T988 1553H802V916H673ZM1103
1259L1287 916H1143L964 1259H1103ZM944 476Q778 476 633 538T378 710T206 965T144 1276Q144 1442 206 1587T378 1842T633 2014T944 2076Q1110 2076 1255 2014T1510 1842T1682 1587T1744 1276Q1744 1110 1682 965T1510 710T1255 538T944 476ZM944 625Q1124 625
1271 713T1507 948T1595 1276Q1595 1456 1507 1603T1272 1839T944 1927Q764 1927 617 1839T381 1604T293 1276Q293 1096 381 949T616 713T944 625Z" />
<glyph unicode="&#xaf;" glyph-name="uni00AF" horiz-adv-x="1117" d="M977 2003V1848H140V2003H977Z" />
<glyph unicode="&#xb0;" glyph-name="uni00B0" horiz-adv-x="1280" d="M640 1177Q517 1177 416 1237T255 1398T195 1623Q195 1746 255 1847T416 2008T640 2068Q763 2068 864 2008T1025 1847T1085 1623Q1085 1500 1025 1399T864 1237T640 1177ZM640 1332Q721 1332
786 1371T891 1476T931 1623Q931 1703 892 1769T787 1874T640 1913Q560 1913 494 1874T389 1769T349 1623Q349 1542 388 1476T494 1371T640 1332Z" />
<glyph unicode="&#xb1;" glyph-name="uni00B1" horiz-adv-x="1835" d="M295 128V299H1540V128H295ZM295 923V1093H1540V923H295ZM832 480V1536H1003V480H832Z" />
<glyph unicode="&#xb2;" glyph-name="uni00B2" horiz-adv-x="1176" d="M149 1024V1144L608 1575Q686 1649 736 1704T810 1810T835 1916Q835 2014 760 2074T573 2135Q455 2135 383 2070T311 1904H151Q151 2065 270 2166T576 2268Q699 2268 793 2222T941 2097T995
1919Q995 1841 965 1774T867 1631T691 1453L388 1168V1161H1041V1024H149Z" />
<glyph unicode="&#xb3;" glyph-name="uni00B3" horiz-adv-x="1193" d="M597 1008Q466 1008 363 1052T198 1175T136 1356H304Q306 1263 390 1206T597 1148Q727 1148 810 1211T893 1369Q893 1466 803 1528T565 1591H487V1717H565Q688 1717 771 1774T855 1928Q855
2017 784 2076T599 2135Q486 2135 407 2077T324 1923H165Q167 2025 224 2103T379 2224T599 2268Q722 2268 816 2225T964 2107T1017 1936Q1017 1828 945 1757T764 1664V1656Q906 1633 984 1552T1063 1359Q1063 1259 1003 1180T838 1054T597 1008Z" />
<glyph unicode="&#xb4;" glyph-name="uni00B4" horiz-adv-x="1400" d="M594 1749L850 2203H1061L754 1749H594Z" />
<glyph unicode="&#xb5;" glyph-name="uni00B5" horiz-adv-x="1697" d="M232 -583V1536H411V587Q411 459 466 361T620 208T849 153Q980 153 1079 208T1233 361T1288 587V1536H1467V0H1288V233H1277Q1218 113 1103 47T849 -20Q711 -20 596 46T421 233H411V-583H232Z" />
<glyph unicode="&#xb6;" glyph-name="uni00B6" horiz-adv-x="1645" d="M1373 1880H957V760H841Q623 760 472 843T243 1072T165 1404Q165 1588 243 1733T472 1963T841 2048H1373V1880ZM1187 0V2048H1373V0H1187Z" />
<glyph unicode="&#xb7;" glyph-name="uni00B7" horiz-adv-x="755" d="M377 752Q318 752 276 794T233 896Q233 956 275 998T377 1040Q437 1040 479 998T521 896Q521 857 502 824T450 772T377 752Z" />
<glyph unicode="&#xb8;" glyph-name="uni00B8" horiz-adv-x="693" d="M274 8H426L411 -72Q497 -85 557 -141T619 -307Q618 -428 525 -499T249 -572L243 -447Q342 -445 399 -414T456 -312Q456 -237 404 -206T238 -169L274 8Z" />
<glyph unicode="&#xb9;" glyph-name="uni00B9" horiz-adv-x="844" d="M433 1024V2084H423L117 1881V2047L425 2252H593V1024H433Z" />
<glyph unicode="&#xba;" glyph-name="uni00BA" horiz-adv-x="1209" d="M144 1437V1547Q144 1692 199 1801T359 1971T605 2032Q821 2032 943 1899T1065 1547V1437Q1065 1291 1011 1183T853 1014T607 953Q391 953 268 1085T144 1437ZM324 1547V1437Q324 1289 396
1198T607 1107Q743 1106 814 1197T885 1437V1547Q885 1692 814 1784T605 1876Q469 1876 397 1785T324 1547Z" />
<glyph unicode="&#xbb;" glyph-name="uni00BB" horiz-adv-x="1513" d="M211 220L605 840H779V820L375 220H211ZM211 1448H375L779 848V828H605L211 1448ZM730 220L1124 840H1298V820L894 220H730ZM730 1448H894L1298 848V828H1124L730 1448Z" />
<glyph unicode="&#xbc;" glyph-name="uni00BC" horiz-adv-x="2395" d="M361 0L1768 2048H1945L539 0H361ZM376 1216V2136H365L91 1954V2121L368 2304H536V1216H376ZM1414 212V339L1950 1088H2058V903H1988L1585 348V344H2300V212H1414ZM1993 0V253L1996 308V1088H2146V0H1993Z"
/>
<glyph unicode="&#xbd;" glyph-name="uni00BD" horiz-adv-x="2545" d="M361 0L1768 2048H1945L539 0H361ZM376 1216V2136H365L91 1954V2121L368 2304H536V1216H376ZM1611 0V117L2028 493Q2136 592 2182 654T2228 784Q2228 869 2162 922T1996 975Q1895 975 1829
919T1763 776H1608Q1608 920 1717 1012T1999 1104Q2170 1104 2275 1013T2381 787Q2381 719 2355 659T2268 532T2105 375L1844 139V132H2428V0H1611Z" />
<glyph unicode="&#xbe;" glyph-name="uni00BE" horiz-adv-x="2626" d="M592 0L1999 2048H2176L770 0H592ZM1644 212V339L2180 1088H2288V903H2218L1815 348V344H2530V212H1644ZM2223 0V253L2226 308V1088H2376V0H2223ZM541 1200Q421 1200 326 1241T175 1353T120
1517H283Q283 1437 357 1386T541 1335Q654 1335 726 1390T799 1525Q799 1609 719 1661T512 1713H441V1831H512Q622 1831 695 1881T769 2012Q769 2088 706 2139T541 2191Q440 2191 372 2140T303 2008H145Q147 2099 199 2169T340 2279T541 2320Q654 2320 741 2281T877
2175T927 2023Q927 1930 863 1866T692 1783V1776Q822 1756 893 1686T965 1515Q965 1425 911 1354T762 1241T541 1200Z" />
<glyph unicode="&#xbf;" glyph-name="uni00BF" horiz-adv-x="1401" d="M857 951V896Q857 739 823 640T723 472T556 340Q484 293 433 239T355 122T328 -20Q328 -128 379 -208T515 -334T707 -379Q807 -379 893 -336T1034 -208T1093 1H1283Q1278 -163 1201 -284T995
-472T707 -539Q541 -539 415 -471T218 -283T147 -12Q147 90 178 173T273 326T432 457Q523 517 576 576T652 710T676 896V951H857ZM761 1552Q821 1552 863 1510T905 1408Q905 1349 863 1307T761 1264Q702 1264 660 1306T617 1408Q617 1448 636 1480T689 1532T761
1552Z" />
<glyph unicode="&#xc0;" glyph-name="uni00C0" horiz-adv-x="1848" d="M275 0H79L824 2048H1024L1769 0H1573L931 1805H917L275 0ZM416 785H1432V617H416V785ZM848 2261L541 2715H752L1008 2261H848Z" />
<glyph unicode="&#xc1;" glyph-name="uni00C1" horiz-adv-x="1848" d="M275 0H79L824 2048H1024L1769 0H1573L931 1805H917L275 0ZM416 785H1432V617H416V785ZM841 2261L1097 2715H1308L1001 2261H841Z" />
<glyph unicode="&#xc2;" glyph-name="uni00C2" horiz-adv-x="1848" d="M275 0H79L824 2048H1024L1769 0H1573L931 1805H917L275 0ZM416 785H1432V617H416V785ZM1163 2224L924 2513L685 2224H511V2237L849 2640H999L1337 2237V2224H1163Z" />
<glyph unicode="&#xc3;" glyph-name="uni00C3" horiz-adv-x="1848" d="M275 0H79L824 2048H1024L1769 0H1573L931 1805H917L275 0ZM416 785H1432V617H416V785ZM587 2283L443 2291Q448 2424 531 2508T734 2593Q795 2593 841 2572T927 2524T1010 2475T1107 2453Q1168
2453 1213 2497T1265 2607L1406 2591Q1399 2456 1316 2376T1115 2296Q1048 2296 1003 2317T921 2366T843 2414T742 2436Q678 2436 635 2392T587 2283Z" />
<glyph unicode="&#xc4;" glyph-name="uni00C4" horiz-adv-x="1848" d="M275 0H79L824 2048H1024L1769 0H1573L931 1805H917L275 0ZM416 785H1432V617H416V785ZM668 2312Q617 2312 579 2350T540 2440Q540 2495 578 2531T668 2568Q723 2568 759 2532T796 2440Q796
2389 760 2351T668 2312ZM1180 2312Q1129 2312 1091 2350T1052 2440Q1052 2495 1090 2531T1180 2568Q1235 2568 1271 2532T1308 2440Q1308 2389 1272 2351T1180 2312Z" />
<glyph unicode="&#xc5;" glyph-name="uni00C5" horiz-adv-x="1848" d="M275 0H79L824 2048H1024L1769 0H1573L931 1805H917L275 0ZM416 785H1432V617H416V785ZM924 2175Q812 2175 734 2253T655 2444Q655 2519 691 2580T788 2677T924 2713Q999 2713 1060 2677T1157
2580T1193 2444Q1193 2370 1157 2309T1060 2211T924 2175ZM924 2292Q988 2292 1031 2336T1075 2444Q1075 2508 1032 2552T924 2596Q860 2596 817 2552T773 2444Q773 2380 816 2336T924 2292Z" />
<glyph unicode="&#xc6;" glyph-name="uni00C6" horiz-adv-x="2759" d="M79 0L1088 2048H2548V1880H1547V1109H2485V941H1547V168H2568V0H1360V1880H1195L284 0H79ZM503 617V785H1455V617H503Z" />
<glyph unicode="&#xc7;" glyph-name="uni00C7" horiz-adv-x="2044" d="M1876 1408H1688Q1667 1513 1613 1602T1476 1759T1290 1863T1065 1900Q871 1900 712 1799T457 1503T361 1024Q361 739 456 544T711 249T1065 148Q1186 148 1290 185T1476 288T1612 445T1688
640H1876Q1851 499 1783 378T1609 165T1366 23T1065 -28Q807 -28 607 101T294 467T180 1024Q180 1345 293 1581T607 1946T1065 2076Q1229 2076 1366 2026T1608 1884T1782 1671T1876 1408ZM985 -3H1137L1122 -83Q1208 -96 1268 -152T1330 -318Q1329 -439 1236 -510T960
-583L954 -458Q1053 -456 1110 -425T1167 -323Q1167 -248 1115 -217T949 -180L985 -3Z" />
<glyph unicode="&#xc8;" glyph-name="uni00C8" horiz-adv-x="1671" d="M272 0V2048H1460V1880H459V1109H1397V941H459V168H1480V0H272ZM790 2261L483 2715H694L950 2261H790Z" />
<glyph unicode="&#xc9;" glyph-name="uni00C9" horiz-adv-x="1671" d="M272 0V2048H1460V1880H459V1109H1397V941H459V168H1480V0H272ZM783 2261L1039 2715H1250L943 2261H783Z" />
<glyph unicode="&#xca;" glyph-name="uni00CA" horiz-adv-x="1671" d="M272 0V2048H1460V1880H459V1109H1397V941H459V168H1480V0H272ZM1106 2224L867 2513L628 2224H454V2237L792 2640H942L1280 2237V2224H1106Z" />
<glyph unicode="&#xcb;" glyph-name="uni00CB" horiz-adv-x="1671" d="M272 0V2048H1460V1880H459V1109H1397V941H459V168H1480V0H272ZM611 2312Q560 2312 522 2350T483 2440Q483 2494 521 2531T611 2568Q666 2568 702 2531T739 2440Q739 2389 703 2351T611 2312ZM1123
2312Q1072 2312 1034 2350T995 2440Q995 2494 1033 2531T1123 2568Q1178 2568 1214 2531T1251 2440Q1251 2389 1215 2351T1123 2312Z" />
<glyph unicode="&#xcc;" glyph-name="uni00CC" horiz-adv-x="731" d="M459 2048V0H272V2048H459ZM289 2261L-18 2715H193L449 2261H289Z" />
<glyph unicode="&#xcd;" glyph-name="uni00CD" horiz-adv-x="731" d="M459 2048V0H272V2048H459ZM282 2261L538 2715H749L442 2261H282Z" />
<glyph unicode="&#xce;" glyph-name="uni00CE" horiz-adv-x="731" d="M459 2048V0H272V2048H459ZM604 2224L365 2513L126 2224H-48V2237L290 2640H440L778 2237V2224H604Z" />
<glyph unicode="&#xcf;" glyph-name="uni00CF" horiz-adv-x="731" d="M459 2048V0H272V2048H459ZM109 2312Q59 2312 20 2350T-19 2440Q-19 2495 20 2531T109 2568Q164 2568 200 2532T237 2440Q237 2389 201 2351T109 2312ZM621 2312Q571 2312 532 2350T493 2440Q493
2495 532 2531T621 2568Q676 2568 712 2532T749 2440Q749 2389 713 2351T621 2312Z" />
<glyph unicode="&#xd0;" glyph-name="uni00D0" horiz-adv-x="2020" d="M872 0H376V168H861Q1125 168 1303 272T1570 569T1659 1029Q1658 1294 1572 1485T1316 1778T897 1880H368V2048H908Q1201 2048 1409 1926T1729 1576T1840 1029Q1840 707 1727 477T1397 123T872
0ZM459 2048V0H272V2048H459ZM-55 979V1123H785V979H-55Z" />
<glyph unicode="&#xd1;" glyph-name="uni00D1" horiz-adv-x="2139" d="M1867 2048V0H1685L475 1715H459V0H272V2048H453L1667 331H1683V2048H1867ZM732 2260L588 2268Q593 2401 676 2486T879 2571Q940 2571 986 2550T1072 2501T1155 2452T1252 2431Q1313 2431
1358 2475T1410 2584L1551 2568Q1544 2434 1461 2354T1260 2273Q1193 2273 1148 2294T1066 2343T988 2392T887 2413Q823 2413 780 2369T732 2260Z" />
<glyph unicode="&#xd2;" glyph-name="uni00D2" horiz-adv-x="2131" d="M1951 1024Q1951 704 1837 468T1524 102T1065 -28Q806 -28 607 101T294 467T180 1024Q180 1344 293 1580T607 1946T1065 2076Q1324 2076 1523 1947T1837 1581T1951 1024ZM1769 1024Q1769 1299
1677 1495T1426 1796T1065 1900Q864 1900 705 1796T454 1496T361 1024Q361 749 453 553T704 253T1065 148Q1267 148 1426 252T1678 552T1769 1024ZM989 2261L682 2715H893L1149 2261H989Z" />
<glyph unicode="&#xd3;" glyph-name="uni00D3" horiz-adv-x="2131" d="M1951 1024Q1951 704 1837 468T1524 102T1065 -28Q806 -28 607 101T294 467T180 1024Q180 1344 293 1580T607 1946T1065 2076Q1324 2076 1523 1947T1837 1581T1951 1024ZM1769 1024Q1769 1299
1677 1495T1426 1796T1065 1900Q864 1900 705 1796T454 1496T361 1024Q361 749 453 553T704 253T1065 148Q1267 148 1426 252T1678 552T1769 1024ZM982 2261L1238 2715H1449L1142 2261H982Z" />
<glyph unicode="&#xd4;" glyph-name="uni00D4" horiz-adv-x="2131" d="M1951 1024Q1951 704 1837 468T1524 102T1065 -28Q806 -28 607 101T294 467T180 1024Q180 1344 293 1580T607 1946T1065 2076Q1324 2076 1523 1947T1837 1581T1951 1024ZM1769 1024Q1769 1299
1677 1495T1426 1796T1065 1900Q864 1900 705 1796T454 1496T361 1024Q361 749 453 553T704 253T1065 148Q1267 148 1426 252T1678 552T1769 1024ZM1304 2224L1065 2513L826 2224H652V2237L990 2640H1140L1478 2237V2224H1304Z" />
<glyph unicode="&#xd5;" glyph-name="uni00D5" horiz-adv-x="2131" d="M1951 1024Q1951 704 1837 468T1524 102T1065 -28Q806 -28 607 101T294 467T180 1024Q180 1344 293 1580T607 1946T1065 2076Q1324 2076 1523 1947T1837 1581T1951 1024ZM1769 1024Q1769 1299
1677 1495T1426 1796T1065 1900Q864 1900 705 1796T454 1496T361 1024Q361 749 453 553T704 253T1065 148Q1267 148 1426 252T1678 552T1769 1024ZM728 2283L584 2291Q589 2424 672 2508T875 2593Q936 2593 982 2572T1068 2524T1151 2475T1248 2453Q1309 2453 1354
2497T1406 2607L1547 2591Q1540 2456 1457 2376T1256 2296Q1189 2296 1144 2317T1062 2366T984 2414T883 2436Q819 2436 776 2392T728 2283Z" />
<glyph unicode="&#xd6;" glyph-name="uni00D6" horiz-adv-x="2131" d="M1951 1024Q1951 704 1837 468T1524 102T1065 -28Q806 -28 607 101T294 467T180 1024Q180 1344 293 1580T607 1946T1065 2076Q1324 2076 1523 1947T1837 1581T1951 1024ZM1769 1024Q1769 1299
1677 1495T1426 1796T1065 1900Q864 1900 705 1796T454 1496T361 1024Q361 749 453 553T704 253T1065 148Q1267 148 1426 252T1678 552T1769 1024ZM809 2312Q759 2312 720 2350T681 2440Q681 2495 720 2531T809 2568Q864 2568 900 2532T937 2440Q937 2389 901 2351T809
2312ZM1321 2312Q1271 2312 1232 2350T1193 2440Q1193 2495 1232 2531T1321 2568Q1376 2568 1412 2532T1449 2440Q1449 2389 1413 2351T1321 2312Z" />
<glyph unicode="&#xd7;" glyph-name="uni00D7" horiz-adv-x="1835" d="M1423 178L295 1306L412 1422L1540 294L1423 178ZM412 178L295 294L1423 1422L1540 1306L412 178Z" />
<glyph unicode="&#xd8;" glyph-name="uni00D8" horiz-adv-x="2131" d="M417 -72L299 9L1708 2117L1827 2036L417 -72ZM1951 1024Q1951 704 1837 468T1524 102T1065 -28Q806 -28 607 101T294 467T180 1024Q180 1344 293 1580T607 1946T1065 2076Q1324 2076 1523
1947T1837 1581T1951 1024ZM1769 1024Q1769 1299 1677 1495T1426 1796T1065 1900Q864 1900 705 1796T454 1496T361 1024Q361 749 453 553T704 253T1065 148Q1267 148 1426 252T1678 552T1769 1024Z" />
<glyph unicode="&#xd9;" glyph-name="uni00D9" horiz-adv-x="2096" d="M1637 2048H1824V692Q1824 483 1726 319T1454 60T1048 -35Q818 -35 643 60T370 319T272 692V2048H459V705Q459 542 532 415T737 214T1048 141Q1226 141 1359 214T1564 414T1637 705V2048ZM972
2261L665 2715H876L1132 2261H972Z" />
<glyph unicode="&#xda;" glyph-name="uni00DA" horiz-adv-x="2096" d="M1637 2048H1824V692Q1824 483 1726 319T1454 60T1048 -35Q818 -35 643 60T370 319T272 692V2048H459V705Q459 542 532 415T737 214T1048 141Q1226 141 1359 214T1564 414T1637 705V2048ZM965
2261L1221 2715H1432L1125 2261H965Z" />
<glyph unicode="&#xdb;" glyph-name="uni00DB" horiz-adv-x="2096" d="M1637 2048H1824V692Q1824 483 1726 319T1454 60T1048 -35Q818 -35 643 60T370 319T272 692V2048H459V705Q459 542 532 415T737 214T1048 141Q1226 141 1359 214T1564 414T1637 705V2048ZM1287
2224L1048 2513L809 2224H635V2237L973 2640H1123L1461 2237V2224H1287Z" />
<glyph unicode="&#xdc;" glyph-name="uni00DC" horiz-adv-x="2096" d="M1637 2048H1824V692Q1824 483 1726 319T1454 60T1048 -35Q818 -35 643 60T370 319T272 692V2048H459V705Q459 542 532 415T737 214T1048 141Q1226 141 1359 214T1564 414T1637 705V2048ZM792
2312Q741 2312 703 2350T664 2440Q664 2494 702 2531T792 2568Q847 2568 883 2531T920 2440Q920 2389 884 2351T792 2312ZM1304 2312Q1253 2312 1215 2350T1176 2440Q1176 2494 1214 2531T1304 2568Q1359 2568 1395 2531T1432 2440Q1432 2389 1396 2351T1304 2312Z"
/>
<glyph unicode="&#xdd;" glyph-name="uni00DD" horiz-adv-x="1824" d="M80 2048H296L903 1076H921L1528 2048H1744L1005 887V0H819V887L80 2048ZM829 2261L1085 2715H1296L989 2261H829Z" />
<glyph unicode="&#xde;" glyph-name="uni00DE" horiz-adv-x="1738" d="M252 2048H437V0H252V2048ZM340 1601H865Q1072 1601 1217 1527T1438 1324T1515 1033Q1515 870 1439 742T1218 539T865 465H340V633H865Q1016 633 1121 679T1281 814T1336 1029Q1336 1156 1281
1246T1120 1385T865 1433H340V1601Z" />
<glyph unicode="&#xdf;" glyph-name="uni00DF" horiz-adv-x="1683" d="M272 0V1529Q272 1698 343 1820T542 2009T835 2076Q997 2076 1123 2013T1322 1834T1393 1560Q1393 1381 1300 1256T1049 1078V1062Q1258 1032 1381 899T1505 555Q1505 393 1431 268T1224 71T909
0H713V168H917Q1041 168 1133 217T1276 352T1327 551Q1327 733 1199 846T851 960H721V1131H817Q939 1131 1028 1186T1166 1334T1215 1536Q1215 1698 1113 1803T839 1908Q667 1909 559 1804T451 1524V0H272Z" />
<glyph unicode="&#xe0;" glyph-name="uni00E0" horiz-adv-x="1567" d="M664 -35Q525 -35 410 19T227 177T159 429Q159 543 202 621T324 749T511 828T749 873Q878 889 967 901T1104 939T1151 1023V1059Q1151 1216 1058 1306T789 1397Q623 1397 519 1324T372 1152L203
1213Q255 1339 347 1414T553 1523T784 1557Q872 1557 967 1534T1145 1455T1278 1298T1329 1043V0H1151V243H1140Q1108 175 1045 111T887 6T664 -35ZM688 128Q830 128 934 191T1094 358T1151 589V811Q1131 792 1085 777T978 751T857 731T749 717Q619 701 527 667T386
574T337 421Q337 281 437 205T688 128ZM980 1749L673 2203H884L1140 1749H980Z" />
<glyph unicode="&#xe1;" glyph-name="uni00E1" horiz-adv-x="1567" d="M664 -35Q525 -35 410 19T227 177T159 429Q159 543 202 621T324 749T511 828T749 873Q878 889 967 901T1104 939T1151 1023V1059Q1151 1216 1058 1306T789 1397Q623 1397 519 1324T372 1152L203
1213Q255 1339 347 1414T553 1523T784 1557Q872 1557 967 1534T1145 1455T1278 1298T1329 1043V0H1151V243H1140Q1108 175 1045 111T887 6T664 -35ZM688 128Q830 128 934 191T1094 358T1151 589V811Q1131 792 1085 777T978 751T857 731T749 717Q619 701 527 667T386
574T337 421Q337 281 437 205T688 128ZM717 1749L973 2203H1184L877 1749H717Z" />
<glyph unicode="&#xe2;" glyph-name="uni00E2" horiz-adv-x="1567" d="M664 -35Q525 -35 410 19T227 177T159 429Q159 543 202 621T324 749T511 828T749 873Q878 889 967 901T1104 939T1151 1023V1059Q1151 1216 1058 1306T789 1397Q623 1397 519 1324T372 1152L203
1213Q255 1339 347 1414T553 1523T784 1557Q872 1557 967 1534T1145 1455T1278 1298T1329 1043V0H1151V243H1140Q1108 175 1045 111T887 6T664 -35ZM688 128Q830 128 934 191T1094 358T1151 589V811Q1131 792 1085 777T978 751T857 731T749 717Q619 701 527 667T386
574T337 421Q337 281 437 205T688 128ZM1039 1712L800 2001L561 1712H387V1725L725 2128H875L1213 1725V1712H1039Z" />
<glyph unicode="&#xe3;" glyph-name="uni00E3" horiz-adv-x="1567" d="M664 -35Q525 -35 410 19T227 177T159 429Q159 543 202 621T324 749T511 828T749 873Q878 889 967 901T1104 939T1151 1023V1059Q1151 1216 1058 1306T789 1397Q623 1397 519 1324T372 1152L203
1213Q255 1339 347 1414T553 1523T784 1557Q872 1557 967 1534T1145 1455T1278 1298T1329 1043V0H1151V243H1140Q1108 175 1045 111T887 6T664 -35ZM688 128Q830 128 934 191T1094 358T1151 589V811Q1131 792 1085 777T978 751T857 731T749 717Q619 701 527 667T386
574T337 421Q337 281 437 205T688 128ZM462 1748L318 1756Q323 1889 406 1974T609 2059Q670 2059 716 2038T802 1989T885 1940T982 1919Q1043 1919 1088 1963T1140 2072L1281 2056Q1274 1922 1191 1842T990 1761Q923 1761 878 1782T796 1831T718 1880T617 1901Q553
1901 510 1857T462 1748Z" />
<glyph unicode="&#xe4;" glyph-name="uni00E4" horiz-adv-x="1567" d="M664 -35Q525 -35 410 19T227 177T159 429Q159 543 202 621T324 749T511 828T749 873Q878 889 967 901T1104 939T1151 1023V1059Q1151 1216 1058 1306T789 1397Q623 1397 519 1324T372 1152L203
1213Q255 1339 347 1414T553 1523T784 1557Q872 1557 967 1534T1145 1455T1278 1298T1329 1043V0H1151V243H1140Q1108 175 1045 111T887 6T664 -35ZM688 128Q830 128 934 191T1094 358T1151 589V811Q1131 792 1085 777T978 751T857 731T749 717Q619 701 527 667T386
574T337 421Q337 281 437 205T688 128ZM544 1800Q493 1800 455 1838T416 1928Q416 1983 454 2019T544 2056Q599 2056 635 2020T672 1928Q672 1877 636 1839T544 1800ZM1056 1800Q1005 1800 967 1838T928 1928Q928 1983 966 2019T1056 2056Q1111 2056 1147 2020T1184
1928Q1184 1877 1148 1839T1056 1800Z" />
<glyph unicode="&#xe5;" glyph-name="uni00E5" horiz-adv-x="1567" d="M664 -35Q525 -35 410 19T227 177T159 429Q159 543 202 621T324 749T511 828T749 873Q878 889 967 901T1104 939T1151 1023V1059Q1151 1216 1058 1306T789 1397Q623 1397 519 1324T372 1152L203
1213Q255 1339 347 1414T553 1523T784 1557Q872 1557 967 1534T1145 1455T1278 1298T1329 1043V0H1151V243H1140Q1108 175 1045 111T887 6T664 -35ZM688 128Q830 128 934 191T1094 358T1151 589V811Q1131 792 1085 777T978 751T857 731T749 717Q619 701 527 667T386
574T337 421Q337 281 437 205T688 128ZM800 1715Q711 1715 639 1755T524 1863T481 2017Q481 2103 523 2173T638 2286T800 2328Q889 2328 960 2286T1074 2174T1116 2017Q1116 1932 1074 1864T961 1755T800 1715ZM800 1837Q879 1837 931 1892T983 2017Q983 2090 931
2146T800 2203Q721 2203 669 2147T617 2017Q617 1946 669 1892T800 1837Z" />
<glyph unicode="&#xe6;" glyph-name="uni00E6" horiz-adv-x="2601" d="M1823 -32Q1576 -32 1409 97T1193 433L1229 1164Q1305 1346 1450 1451T1796 1557Q1921 1557 2037 1512T2245 1373T2391 1138T2445 803V715H1249V872H2264Q2264 1020 2205 1138T2039 1325T1796
1395Q1649 1395 1538 1317T1365 1111T1301 831V737Q1301 554 1365 418T1546 206T1823 131Q1932 131 2014 165T2153 256T2239 383L2408 328Q2373 231 2294 149T2096 18T1823 -32ZM688 128Q830 128 934 191T1094 358T1151 589V811Q1131 792 1085 777T978 751T857
731T749 717Q619 701 527 667T386 574T337 421Q337 281 437 205T688 128ZM664 -35Q525 -35 410 19T227 177T159 429Q159 543 202 621T324 749T511 829T749 873Q878 889 967 901T1104 939T1151 1023V1059Q1151 1216 1057 1306T789 1397Q623 1397 519 1324T372 1152L203
1213Q255 1339 347 1414T553 1523T784 1557Q864 1557 947 1538T1104 1476T1233 1361T1311 1181L1249 347H1232Q1197 228 1111 143T909 11T664 -35Z" />
<glyph unicode="&#xe7;" glyph-name="uni00E7" horiz-adv-x="1567" d="M835 -32Q629 -32 477 71T240 353T156 761Q156 992 241 1172T479 1454T832 1557Q986 1557 1111 1498T1317 1331T1420 1080H1240Q1212 1210 1106 1302T835 1395Q688 1395 575 1316T399 1095T335
767Q335 580 397 437T571 212T835 131Q937 131 1021 169T1163 279T1241 448H1421Q1401 309 1323 201T1120 30T835 -32ZM744 8H896L881 -72Q967 -85 1027 -141T1089 -307Q1088 -428 995 -499T719 -572L713 -447Q812 -445 869 -414T926 -312Q926 -237 874 -206T708
-169L744 8Z" />
<glyph unicode="&#xe8;" glyph-name="uni00E8" horiz-adv-x="1635" d="M856 -32Q641 -32 484 68T242 347T156 759Q156 991 241 1171T478 1454T829 1557Q954 1557 1070 1512T1278 1373T1425 1138T1479 803V715H279V872H1297Q1297 1020 1238 1138T1073 1326T829
1395Q683 1395 572 1317T399 1111T335 831V737Q335 554 398 418T579 206T856 131Q965 131 1047 165T1186 256T1272 383L1441 328Q1406 231 1327 149T1129 18T856 -32ZM1000 1749L693 2203H904L1160 1749H1000Z" />
<glyph unicode="&#xe9;" glyph-name="uni00E9" horiz-adv-x="1635" d="M856 -32Q641 -32 484 68T242 347T156 759Q156 991 241 1171T478 1454T829 1557Q954 1557 1070 1512T1278 1373T1425 1138T1479 803V715H279V872H1297Q1297 1020 1238 1138T1073 1326T829
1395Q683 1395 572 1317T399 1111T335 831V737Q335 554 398 418T579 206T856 131Q965 131 1047 165T1186 256T1272 383L1441 328Q1406 231 1327 149T1129 18T856 -32ZM737 1749L993 2203H1204L897 1749H737Z" />
<glyph unicode="&#xea;" glyph-name="uni00EA" horiz-adv-x="1635" d="M856 -32Q641 -32 484 68T242 347T156 759Q156 991 241 1171T478 1454T829 1557Q954 1557 1070 1512T1278 1373T1425 1138T1479 803V715H279V872H1297Q1297 1020 1238 1138T1073 1326T829
1395Q683 1395 572 1317T399 1111T335 831V737Q335 554 398 418T579 206T856 131Q965 131 1047 165T1186 256T1272 383L1441 328Q1406 231 1327 149T1129 18T856 -32ZM1059 1712L820 2001L581 1712H407V1725L745 2128H895L1233 1725V1712H1059Z" />
<glyph unicode="&#xeb;" glyph-name="uni00EB" horiz-adv-x="1635" d="M856 -32Q641 -32 484 68T242 347T156 759Q156 991 241 1171T478 1454T829 1557Q954 1557 1070 1512T1278 1373T1425 1138T1479 803V715H279V872H1297Q1297 1020 1238 1138T1073 1326T829
1395Q683 1395 572 1317T399 1111T335 831V737Q335 554 398 418T579 206T856 131Q965 131 1047 165T1186 256T1272 383L1441 328Q1406 231 1327 149T1129 18T856 -32ZM564 1800Q513 1800 475 1838T436 1928Q436 1983 474 2019T564 2056Q619 2056 655 2020T692 1928Q692
1877 656 1839T564 1800ZM1076 1800Q1025 1800 987 1838T948 1928Q948 1983 986 2019T1076 2056Q1131 2056 1167 2020T1204 1928Q1204 1877 1168 1839T1076 1800Z" />
<glyph unicode="&#xec;" glyph-name="uni00EC" horiz-adv-x="653" d="M237 0V1536H416V0H237ZM252 1749L-55 2203H156L412 1749H252Z" />
<glyph unicode="&#xed;" glyph-name="uni00ED" horiz-adv-x="653" d="M237 0V1536H416V0H237ZM245 1749L501 2203H712L405 1749H245Z" />
<glyph unicode="&#xee;" glyph-name="uni00EE" horiz-adv-x="653" d="M237 0V1536H416V0H237ZM567 1712L328 2001L89 1712H-85V1725L253 2128H403L741 1725V1712H567Z" />
<glyph unicode="&#xef;" glyph-name="uni00EF" horiz-adv-x="653" d="M237 0V1536H416V0H237ZM72 1800Q21 1800 -17 1838T-56 1928Q-56 1983 -18 2019T72 2056Q127 2056 163 2020T200 1928Q200 1877 164 1839T72 1800ZM584 1800Q533 1800 495 1838T456 1928Q456
1983 494 2019T584 2056Q639 2056 675 2020T712 1928Q712 1877 676 1839T584 1800Z" />
<glyph unicode="&#xf0;" glyph-name="uni00F0" horiz-adv-x="1645" d="M1335 1969L527 1586L476 1705L1284 2088L1335 1969ZM823 -32Q624 -32 474 64T240 328T156 707Q156 923 240 1090T466 1352T783 1447Q898 1447 989 1408T1147 1304T1257 1163H1274Q1223 1314
1127 1472T875 1778T494 2043L570 2176Q751 2081 916 1939T1210 1615T1414 1216T1489 753Q1489 508 1404 332T1169 62T823 -32ZM823 131Q975 131 1086 206T1256 410T1316 697Q1316 847 1260 984T1093 1208T823 1295Q670 1295 561 1215T394 1001T335 707Q335 553
391 422T556 211T823 131Z" />
<glyph unicode="&#xf1;" glyph-name="uni00F1" horiz-adv-x="1632" d="M413 960V0H235V1536H408V1295H424Q478 1413 592 1484T876 1556Q1031 1556 1148 1492T1331 1302T1397 995V0H1219V984Q1219 1173 1114 1283T831 1393Q710 1393 616 1341T468 1192T413 960ZM480
1748L336 1756Q341 1889 424 1974T627 2059Q688 2059 734 2038T820 1989T903 1940T1000 1919Q1061 1919 1106 1963T1158 2072L1299 2056Q1292 1922 1209 1842T1008 1761Q941 1761 896 1782T814 1831T736 1880T635 1901Q571 1901 528 1857T480 1748Z" />
<glyph unicode="&#xf2;" glyph-name="uni00F2" horiz-adv-x="1664" d="M832 -32Q633 -32 481 69T242 348T156 761Q156 997 242 1176T480 1456T832 1557Q1031 1557 1183 1456T1421 1176T1508 761Q1508 527 1422 349T1184 69T832 -32ZM832 131Q992 131 1103 217T1271
446T1329 761Q1329 933 1272 1077T1103 1308T832 1395Q673 1395 562 1308T393 1077T335 761Q335 589 392 446T561 217T832 131ZM1012 1749L705 2203H916L1172 1749H1012Z" />
<glyph unicode="&#xf3;" glyph-name="uni00F3" horiz-adv-x="1664" d="M832 -32Q633 -32 481 69T242 348T156 761Q156 997 242 1176T480 1456T832 1557Q1031 1557 1183 1456T1421 1176T1508 761Q1508 527 1422 349T1184 69T832 -32ZM832 131Q992 131 1103 217T1271
446T1329 761Q1329 933 1272 1077T1103 1308T832 1395Q673 1395 562 1308T393 1077T335 761Q335 589 392 446T561 217T832 131ZM749 1749L1005 2203H1216L909 1749H749Z" />
<glyph unicode="&#xf4;" glyph-name="uni00F4" horiz-adv-x="1664" d="M832 -32Q633 -32 481 69T242 348T156 761Q156 997 242 1176T480 1456T832 1557Q1031 1557 1183 1456T1421 1176T1508 761Q1508 527 1422 349T1184 69T832 -32ZM832 131Q992 131 1103 217T1271
446T1329 761Q1329 933 1272 1077T1103 1308T832 1395Q673 1395 562 1308T393 1077T335 761Q335 589 392 446T561 217T832 131ZM1071 1712L832 2001L593 1712H419V1725L757 2128H907L1245 1725V1712H1071Z" />
<glyph unicode="&#xf5;" glyph-name="uni00F5" horiz-adv-x="1664" d="M832 -32Q633 -32 481 69T242 348T156 761Q156 997 242 1176T480 1456T832 1557Q1031 1557 1183 1456T1421 1176T1508 761Q1508 527 1422 349T1184 69T832 -32ZM832 131Q992 131 1103 217T1271
446T1329 761Q1329 933 1272 1077T1103 1308T832 1395Q673 1395 562 1308T393 1077T335 761Q335 589 392 446T561 217T832 131ZM494 1748L350 1756Q355 1889 438 1974T641 2059Q702 2059 748 2038T834 1989T917 1940T1014 1919Q1075 1919 1120 1963T1172 2072L1313
2056Q1306 1922 1223 1842T1022 1761Q955 1761 910 1782T828 1831T750 1880T649 1901Q585 1901 542 1857T494 1748Z" />
<glyph unicode="&#xf6;" glyph-name="uni00F6" horiz-adv-x="1664" d="M832 -32Q633 -32 481 69T242 348T156 761Q156 997 242 1176T480 1456T832 1557Q1031 1557 1183 1456T1421 1176T1508 761Q1508 527 1422 349T1184 69T832 -32ZM832 131Q992 131 1103 217T1271
446T1329 761Q1329 933 1272 1077T1103 1308T832 1395Q673 1395 562 1308T393 1077T335 761Q335 589 392 446T561 217T832 131ZM576 1800Q525 1800 487 1838T448 1928Q448 1983 486 2019T576 2056Q631 2056 667 2020T704 1928Q704 1877 668 1839T576 1800ZM1088
1800Q1037 1800 999 1838T960 1928Q960 1983 998 2019T1088 2056Q1143 2056 1179 2020T1216 1928Q1216 1877 1180 1839T1088 1800Z" />
<glyph unicode="&#xf7;" glyph-name="uni00F7" horiz-adv-x="1835" d="M1537 885V715H297V885H1537ZM917 160Q857 160 815 202T773 304Q773 362 815 403T917 445Q975 445 1017 404T1059 304Q1059 244 1017 202T917 160ZM917 1155Q877 1155 845 1174T793 1226T773
1299Q773 1357 815 1398T917 1440Q975 1440 1017 1399T1059 1299Q1059 1239 1017 1197T917 1155Z" />
<glyph unicode="&#xf8;" glyph-name="uni00F8" horiz-adv-x="1664" d="M357 -69L237 12L1307 1597L1427 1516L357 -69ZM832 -31Q633 -31 481 70T242 350T156 763Q156 998 242 1177T480 1458T832 1559Q1031 1559 1183 1458T1421 1178T1508 763Q1508 529 1422 350T1184
70T832 -31ZM832 132Q992 132 1103 218T1271 447T1329 763Q1329 935 1272 1078T1103 1309T832 1396Q673 1396 562 1309T393 1079T335 763Q335 591 392 448T561 218T832 132Z" />
<glyph unicode="&#xf9;" glyph-name="uni00F9" horiz-adv-x="1624" d="M1211 587V1536H1389V0H1211V255H1197Q1143 137 1026 59T740 -20Q593 -20 479 44T300 234T235 541V1536H413V552Q413 372 519 263T791 153Q895 153 991 203T1149 349T1211 587ZM993 1749L686
2203H897L1153 1749H993Z" />
<glyph unicode="&#xfa;" glyph-name="uni00FA" horiz-adv-x="1624" d="M1211 587V1536H1389V0H1211V255H1197Q1143 137 1026 59T740 -20Q593 -20 479 44T300 234T235 541V1536H413V552Q413 372 519 263T791 153Q895 153 991 203T1149 349T1211 587ZM730 1749L986
2203H1197L890 1749H730Z" />
<glyph unicode="&#xfb;" glyph-name="uni00FB" horiz-adv-x="1624" d="M1211 587V1536H1389V0H1211V255H1197Q1143 137 1026 59T740 -20Q593 -20 479 44T300 234T235 541V1536H413V552Q413 372 519 263T791 153Q895 153 991 203T1149 349T1211 587ZM1052 1712L813
2001L574 1712H400V1725L738 2128H888L1226 1725V1712H1052Z" />
<glyph unicode="&#xfc;" glyph-name="uni00FC" horiz-adv-x="1624" d="M1211 587V1536H1389V0H1211V255H1197Q1143 137 1026 59T740 -20Q593 -20 479 44T300 234T235 541V1536H413V552Q413 372 519 263T791 153Q895 153 991 203T1149 349T1211 587ZM813 1800Q762
1800 724 1838T685 1928Q685 1983 723 2019T813 2056Q868 2056 904 2020T941 1928Q941 1877 905 1839T813 1800ZM1325 1800Q1274 1800 1236 1838T1197 1928Q1197 1983 1235 2019T1325 2056Q1380 2056 1416 2020T1453 1928Q1453 1877 1417 1839T1325 1800Z" />
<glyph unicode="&#xfd;" glyph-name="uni00FD" horiz-adv-x="1536" d="M359 -576Q306 -576 260 -566T187 -544L235 -387Q326 -415 397 -408T523 -344T621 -171L677 -15L112 1536H305L761 235H775L1231 1536H1424L774 -243Q733 -354 673 -428T535 -539T359 -576ZM685
1749L941 2203H1152L845 1749H685Z" />
<glyph unicode="&#xfe;" glyph-name="uni00FE" horiz-adv-x="1685" d="M232 2048H411V1096L364 779L411 387V-576H232V2048ZM337 1243H427Q458 1312 514 1384T662 1507T896 1557Q1086 1557 1229 1458T1451 1180T1531 764Q1531 526 1451 347T1229 68T899 -32Q759
-32 666 18T515 141T427 285H337V1243ZM1352 767Q1352 944 1298 1086T1138 1311T877 1395Q727 1395 622 1315T463 1093T408 767Q408 581 463 438T624 213T877 131Q1030 131 1136 215T1297 444T1352 767Z" />
<glyph unicode="&#xff;" glyph-name="uni00FF" horiz-adv-x="1536" d="M359 -576Q306 -576 260 -566T187 -544L235 -387Q326 -415 397 -408T523 -344T621 -171L677 -15L112 1536H305L761 235H775L1231 1536H1424L774 -243Q733 -354 673 -428T535 -539T359 -576ZM512
1800Q461 1800 423 1838T384 1928Q384 1983 422 2019T512 2056Q567 2056 603 2020T640 1928Q640 1877 604 1839T512 1800ZM1024 1800Q973 1800 935 1838T896 1928Q896 1983 934 2019T1024 2056Q1079 2056 1115 2020T1152 1928Q1152 1877 1116 1839T1024 1800Z"
/>
<glyph unicode="&#x2013;" glyph-name="uni2013" horiz-adv-x="1408" d="M1408 962V794H0V962H1408Z" />
<glyph unicode="&#x2014;" glyph-name="uni2014" horiz-adv-x="2816" d="M2816 962V794H0V962H2816Z" />
<glyph unicode="&#x2018;" glyph-name="uni2018" horiz-adv-x="535" d="M137 1408V1588Q137 1670 166 1762T252 1941T389 2092L487 2007Q411 1919 360 1812T308 1591V1408H137Z" />
<glyph unicode="&#x2019;" glyph-name="uni2019" horiz-adv-x="493" d="M397 2048V1868Q397 1786 368 1694T282 1515T145 1364L48 1449Q123 1537 175 1644T227 1865V2048H397Z" />
<glyph unicode="&#x201a;" glyph-name="uni201A" horiz-adv-x="535" d="M394 256V76Q394 -6 365 -98T279 -277T142 -428L45 -343Q120 -255 172 -148T224 73V256H394Z" />
<glyph unicode="&#x201c;" glyph-name="uni201C" horiz-adv-x="1004" d="M137 1408V1588Q137 1670 166 1762T252 1941T389 2092L487 2007Q411 1919 360 1812T308 1591V1408H137ZM606 1408V1588Q606 1670 635 1762T721 1941T858 2092L956 2007Q880 1919 829 1812T777
1591V1408H606Z" />
<glyph unicode="&#x201d;" glyph-name="uni201D" horiz-adv-x="1004" d="M397 2048V1868Q397 1786 368 1694T282 1515T145 1364L48 1449Q123 1537 175 1644T227 1865V2048H397ZM867 2048V1868Q867 1786 838 1694T752 1515T615 1364L517 1449Q593 1537 644 1644T696
1865V2048H867Z" />
<glyph unicode="&#x201e;" glyph-name="uni201E" horiz-adv-x="1004" d="M397 256V76Q397 -6 368 -98T282 -277T145 -428L48 -343Q123 -255 175 -148T227 73V256H397ZM867 256V76Q867 -6 838 -98T752 -277T615 -428L517 -343Q593 -255 644 -148T696 73V256H867Z" />
<glyph unicode="&#x2022;" glyph-name="uni2022" horiz-adv-x="1584" d="M792 437Q688 437 602 488T465 626T413 816Q413 921 464 1006T601 1143T792 1195Q897 1195 982 1144T1119 1007T1171 816Q1171 712 1120 626T983 489T792 437Z" />
<glyph unicode="&#x2039;" glyph-name="uni2039" horiz-adv-x="995" d="M771 220H607L203 820V840H376L771 220ZM771 1448L376 828H203V848L607 1448H771Z" />
<glyph unicode="&#x203a;" glyph-name="uni203A" horiz-adv-x="995" d="M211 220L605 840H779V820L375 220H211ZM211 1448H375L779 848V828H605L211 1448Z" />
</font>
</defs>
</svg>
